<?xml version="1.0" standalone="no"?>
<!DOCTYPE svg PUBLIC "-//W3C//DTD SVG 1.1//EN" "http://www.w3.org/Graphics/SVG/1.1/DTD/svg11.dtd" >
<svg xmlns="http://www.w3.org/2000/svg">
<metadata>Generated by IcoMoon</metadata>
<defs>
<font id="Modern-Furniture" horiz-adv-x="1024">
<font-face units-per-em="1024" ascent="960" descent="-64" />
<missing-glyph horiz-adv-x="1024" />
<glyph unicode="&#x20;" horiz-adv-x="512" d="" />
<glyph unicode="&#xe900;" glyph-name="sofa-bold" horiz-adv-x="1331" d="M1071.834 89.6h87.314c11.021 0 20.803-7.050 24.287-17.505l34.135-102.4c5.524-16.576-6.815-33.695-24.287-33.695h-53.181c-8.561 0-16.553 4.278-21.302 11.4l-68.265 102.4c-11.343 17.014 0.852 39.8 21.299 39.8zM259.366 89.6h-87.315c-11.019 0-20.802-7.050-24.286-17.505l-34.134-102.4c-5.526-16.576 6.813-33.695 24.286-33.695h53.181c8.559 0 16.552 4.278 21.3 11.4l68.266 102.4c11.343 17.014-0.852 39.8-21.299 39.8zM0 345.6c0 56.553 45.846 102.4 102.4 102.4h1126.4c56.553 0 102.4-45.847 102.4-102.4v-128c0-56.553-45.847-102.4-102.4-102.4h-1126.4c-56.554 0-102.4 45.847-102.4 102.4v128zM128 960c-56.554 0-102.4-45.846-102.4-102.4v-153.6h102.4c56.554 0 102.4-45.847 102.4-102.4v-102.4h896v102.4c0 56.553 45.847 102.4 102.4 102.4h76.8v153.6c0 56.554-45.847 102.4-102.4 102.4h-1075.2zM153.6 780.8c28.277 0 51.2 22.923 51.2 51.2s-22.923 51.2-51.2 51.2c-28.277 0-51.2-22.923-51.2-51.2s22.923-51.2 51.2-51.2zM179.2 576c0-42.415-34.385-76.8-76.8-76.8s-76.8 34.385-76.8 76.8c0 42.415 34.385 76.8 76.8 76.8s76.8-34.385 76.8-76.8zM1305.6 576c0-42.415-34.385-76.8-76.8-76.8s-76.8 34.385-76.8 76.8c0 42.415 34.385 76.8 76.8 76.8s76.8-34.385 76.8-76.8z" />
<glyph unicode="&#xe901;" glyph-name="chair-bold" horiz-adv-x="973" d="M739.034 89.6h87.314c11.021 0 20.803-7.050 24.287-17.505l34.135-102.4c5.524-16.576-6.815-33.695-24.287-33.695h-53.181c-8.561 0-16.553 4.278-21.302 11.4l-68.265 102.4c-11.343 17.014 0.852 39.8 21.299 39.8zM233.766 89.6h-87.314c-11.019 0-20.802-7.050-24.286-17.505l-34.134-102.4c-5.526-16.576 6.813-33.695 24.286-33.695h53.181c8.559 0 16.552 4.278 21.3 11.4l68.266 102.4c11.343 17.014-0.854 39.8-21.3 39.8zM0 345.6c0 56.553 45.846 102.4 102.4 102.4h768c56.553 0 102.4-45.847 102.4-102.4v-128c0-56.553-45.847-102.4-102.4-102.4h-768c-56.554 0-102.4 45.847-102.4 102.4v128zM153.6 960c-56.554 0-102.4-45.846-102.4-102.4v-153.6h102.4c56.554 0 102.4-45.847 102.4-102.4v-102.4h460.8v102.4c0 56.553 45.847 102.4 102.4 102.4h102.4v153.6c0 56.554-45.847 102.4-102.4 102.4h-665.6zM179.2 780.8c28.277 0 51.2 22.923 51.2 51.2s-22.923 51.2-51.2 51.2c-28.277 0-51.2-22.923-51.2-51.2s22.923-51.2 51.2-51.2zM204.8 576c0-42.415-34.385-76.8-76.8-76.8s-76.8 34.385-76.8 76.8c0 42.415 34.385 76.8 76.8 76.8s76.8-34.385 76.8-76.8zM921.6 576c0-42.415-34.385-76.8-76.8-76.8s-76.8 34.385-76.8 76.8c0 42.415 34.385 76.8 76.8 76.8s76.8-34.385 76.8-76.8z" />
<glyph unicode="&#xe902;" glyph-name="desk-bold" d="M537.6 448c0 56.553-45.847 102.4-102.4 102.4h-332.8c-56.554 0-102.4-45.847-102.4-102.4v-409.6c0-56.553 45.846-102.4 102.4-102.4h332.8c56.553 0 102.4 45.847 102.4 102.4v409.6zM396.8 345.6c-21.207 0-38.4-17.193-38.4-38.4v-128c0-21.207 17.193-38.4 38.4-38.4s38.4 17.193 38.4 38.4v128c0 21.207-17.193 38.4-38.4 38.4zM896 499.2c0 28.278 22.922 51.2 51.2 51.2s51.2-22.922 51.2-51.2v-512c0-28.278-22.922-51.2-51.2-51.2s-51.2 22.922-51.2 51.2v512zM0 857.6c0 56.554 45.846 102.4 102.4 102.4h819.2c56.553 0 102.4-45.846 102.4-102.4v-153.6c0-56.553-45.847-102.4-102.4-102.4h-819.2c-56.554 0-102.4 45.847-102.4 102.4v153.6zM179.2 832c0-28.277-22.923-51.2-51.2-51.2s-51.2 22.923-51.2 51.2c0 28.277 22.923 51.2 51.2 51.2s51.2-22.923 51.2-51.2zM614.4 742.4c0 21.208-17.193 38.4-38.4 38.4h-128c-21.207 0-38.4-17.192-38.4-38.4s17.193-38.4 38.4-38.4h128c21.207 0 38.4 17.192 38.4 38.4z" />
<glyph unicode="&#xe903;" glyph-name="bureau-bold" d="M793.6 38.4h60.979c9.695 0 18.56-5.478 22.897-14.152l25.6-51.2c8.509-17.021-3.868-37.048-22.897-37.048h-48.179c-8.059 0-15.644 3.794-20.48 10.24l-38.4 51.2c-12.657 16.876-0.614 40.96 20.48 40.96zM230.4 38.4h-60.978c-9.697 0-18.561-5.478-22.897-14.152l-25.6-51.2c-8.511-17.021 3.867-37.048 22.897-37.048h48.178c8.058 0 15.645 3.794 20.48 10.24l38.4 51.2c12.657 16.876 0.616 40.96-20.48 40.96zM0 857.6c0 56.554 45.846 102.4 102.4 102.4h819.2c56.553 0 102.4-45.846 102.4-102.4v-153.6c0-56.553-45.847-102.4-102.4-102.4h-819.2c-56.554 0-102.4 45.847-102.4 102.4v153.6zM179.2 832c0-28.277-22.923-51.2-51.2-51.2s-51.2 22.923-51.2 51.2c0 28.277 22.923 51.2 51.2 51.2s51.2-22.923 51.2-51.2zM614.4 742.4c0 21.208-17.193 38.4-38.4 38.4h-128c-21.207 0-38.4-17.192-38.4-38.4s17.193-38.4 38.4-38.4h128c21.207 0 38.4 17.192 38.4 38.4zM102.4 550.4h819.2c56.553 0 102.4-45.847 102.4-102.4v-281.6c0-56.553-45.847-102.4-102.4-102.4h-819.2c-56.554 0-102.4 45.847-102.4 102.4v281.6c0 56.553 45.846 102.4 102.4 102.4zM614.4 204.8c0 21.207-17.193 38.4-38.4 38.4h-128c-21.207 0-38.4-17.193-38.4-38.4s17.193-38.4 38.4-38.4h128c21.207 0 38.4 17.193 38.4 38.4z" />
<glyph unicode="&#xe904;" glyph-name="tv-bold" horiz-adv-x="1229" d="M934.4 12.8c21.207 0 38.4-17.193 38.4-38.4s-17.193-38.4-38.4-38.4h-640c-21.207 0-38.4 17.193-38.4 38.4s17.193 38.4 38.4 38.4h640zM0 857.6c0 56.554 45.846 102.4 102.4 102.4h1024c56.553 0 102.4-45.846 102.4-102.4v-691.2c0-56.553-45.847-102.4-102.4-102.4h-1024c-56.554 0-102.4 45.847-102.4 102.4v691.2zM179.2 832c0-28.277-22.923-51.2-51.2-51.2s-51.2 22.923-51.2 51.2c0 28.277 22.923 51.2 51.2 51.2s51.2-22.923 51.2-51.2zM1024 192c-14.139 0-25.6-11.461-25.6-25.6s11.461-25.6 25.6-25.6h102.4c14.139 0 25.6 11.461 25.6 25.6s-11.461 25.6-25.6 25.6h-102.4z" />
<glyph unicode="&#xe905;" glyph-name="door-bold" d="M691.2 934.4c-56.553 0-102.4-45.846-102.4-102.4v-793.6c0-56.553 45.847-102.4 102.4-102.4l230.4 25.6c56.553 0 102.4 45.847 102.4 102.4v793.6c0 56.554-45.847 102.4-102.4 102.4l-230.4-25.6zM678.4 473.6c-21.207 0-38.4-17.193-38.4-38.4v-128c0-21.207 17.193-38.4 38.4-38.4s38.4 17.193 38.4 38.4v128c0 21.207-17.193 38.4-38.4 38.4zM0 857.6c0 56.554 45.846 102.4 102.4 102.4h281.6c56.553 0 102.4-45.846 102.4-102.4v-793.6c0-56.553-45.847-102.4-102.4-102.4h-281.6c-56.554 0-102.4 45.847-102.4 102.4v793.6zM179.2 832c0-28.277-22.923-51.2-51.2-51.2s-51.2 22.923-51.2 51.2c0 28.277 22.923 51.2 51.2 51.2s51.2-22.923 51.2-51.2zM345.6 345.6c21.207 0 38.4 17.193 38.4 38.4v128c0 21.207-17.193 38.4-38.4 38.4s-38.4-17.193-38.4-38.4v-128c0-21.207 17.193-38.4 38.4-38.4z" />
<glyph unicode="&#xe906;" glyph-name="bed-bold" horiz-adv-x="1331" d="M0 448c0 56.553 45.846 102.4 102.4 102.4h1126.4c56.553 0 102.4-45.847 102.4-102.4v-281.6c0-56.553-45.847-102.4-102.4-102.4h-1126.4c-56.554 0-102.4 45.847-102.4 102.4v281.6zM1216 12.8c21.207 0 38.4-17.193 38.4-38.4s-17.193-38.4-38.4-38.4h-1100.8c-21.208 0-38.4 17.193-38.4 38.4s17.192 38.4 38.4 38.4h1100.8zM196.519 900.367c8.003 34.895 39.055 59.633 74.856 59.633h788.452c35.802 0 66.852-24.737 74.857-59.633l46.966-204.8c11.031-48.097-25.51-93.967-74.854-93.967h-882.388c-49.346 0-85.887 45.87-74.857 93.967l46.968 204.8zM307.2 780.8c28.278 0 51.2 22.923 51.2 51.2s-22.922 51.2-51.2 51.2c-28.278 0-51.2-22.923-51.2-51.2s22.922-51.2 51.2-51.2z" />
<glyph unicode="&#xe907;" glyph-name="lamp-bold" horiz-adv-x="931" d="M325.818 122.182c-25.707 0-47.118-21.157-40.758-46.064 8.201-32.116 24.906-61.75 48.742-85.588 34.916-34.914 82.274-54.53 131.651-54.53s96.735 19.617 131.651 54.53c23.836 23.838 40.541 53.471 48.742 85.588 6.36 24.906-15.050 46.064-40.758 46.064h-279.273zM925.682 238.287c5.762-38.128-26.033-69.56-64.593-69.56h-791.272c-38.56 0-70.355 31.432-64.593 69.56 14.766 97.704 60.38 188.842 131.103 259.565 87.29 87.291 205.68 136.329 329.126 136.329s241.836-49.038 329.128-136.329c70.723-70.723 116.336-161.862 131.102-259.565zM139.636 238.545c25.706 0 46.545 20.838 46.545 46.545s-20.839 46.545-46.545 46.545c-25.706 0-46.545-20.838-46.545-46.545s20.839-46.545 46.545-46.545zM370.991 739.303c5.446 20.357 23.889 34.515 44.963 34.515h93.528c20.035 0 37.823-12.82 44.158-31.826l7.757-23.272c10.047-30.141-12.386-61.265-44.158-61.265h-107.511c-30.599 0-52.873 29.019-44.965 58.575l6.228 23.273zM442.182 936.727c0 12.853 10.419 23.273 23.273 23.273v0c12.854 0 23.273-10.42 23.273-23.273v-93.091c0-12.853-10.419-23.273-23.273-23.273v0c-12.854 0-23.273 10.42-23.273 23.273v93.091z" />
<glyph unicode="&#xe908;" glyph-name="sofa-thin" horiz-adv-x="1331" d="M128 908.8h1075.2c28.278 0 51.2-22.923 51.2-51.2v-51.2h-25.6c-84.831 0-153.6-68.769-153.6-153.6v-51.2h-793.6v51.2c0 84.831-68.769 153.6-153.6 153.6h-51.2v51.2c0 28.277 22.923 51.2 51.2 51.2zM128 960c-56.554 0-102.4-45.846-102.4-102.4v-102.4h102.4c56.554 0 102.4-45.846 102.4-102.4v-102.4h896v102.4c0 56.554 45.847 102.4 102.4 102.4h76.8v102.4c0 56.554-45.847 102.4-102.4 102.4h-1075.2zM179.2 627.2c0-42.415-34.385-76.8-76.8-76.8s-76.8 34.385-76.8 76.8c0 42.415 34.385 76.8 76.8 76.8s76.8-34.385 76.8-76.8zM1305.6 627.2c0-42.415-34.385-76.8-76.8-76.8s-76.8 34.385-76.8 76.8c0 42.415 34.385 76.8 76.8 76.8s76.8-34.385 76.8-76.8zM102.4 448h1126.4c28.278 0 51.2-22.922 51.2-51.2v-179.2c0-28.278-22.922-51.2-51.2-51.2h-1126.4c-28.277 0-51.2 22.922-51.2 51.2v179.2c0 28.278 22.923 51.2 51.2 51.2zM102.4 499.2c-56.554 0-102.4-45.847-102.4-102.4v-179.2c0-56.553 45.846-102.4 102.4-102.4h44.8l-36.848-147.392c-4.039-16.156 8.181-31.808 24.836-31.808h53.79c9.697 0 18.561 5.478 22.897 14.152l76.8 153.6c1.876 3.753 2.737 7.649 2.737 11.448h748.375c0-3.799 0.86-7.695 2.737-11.448l76.8-153.6c4.337-8.673 13.202-14.152 22.897-14.152h53.791c16.655 0 28.877 15.652 24.837 31.808l-36.849 147.392h44.8c56.553 0 102.4 45.847 102.4 102.4v179.2c0 56.553-45.847 102.4-102.4 102.4h-1126.4z" />
<glyph unicode="&#xe909;" glyph-name="chair-thin" horiz-adv-x="973" d="M153.6 908.8h665.6c28.278 0 51.2-22.923 51.2-51.2v-102.4h-51.2c-84.831 0-153.6-68.769-153.6-153.6v-51.2h-358.4v51.2c0 84.831-68.769 153.6-153.6 153.6h-51.2v102.4c0 28.277 22.923 51.2 51.2 51.2zM153.6 960c-56.554 0-102.4-45.846-102.4-102.4v-153.6h102.4c56.554 0 102.4-45.847 102.4-102.4v-102.4h460.8v102.4c0 56.553 45.847 102.4 102.4 102.4h102.4v153.6c0 56.554-45.847 102.4-102.4 102.4h-665.6zM204.8 576c0-42.415-34.385-76.8-76.8-76.8s-76.8 34.385-76.8 76.8c0 42.415 34.385 76.8 76.8 76.8s76.8-34.385 76.8-76.8zM921.6 576c0-42.415-34.385-76.8-76.8-76.8s-76.8 34.385-76.8 76.8c0 42.415 34.385 76.8 76.8 76.8s76.8-34.385 76.8-76.8zM870.4 396.8c28.278 0 51.2-22.922 51.2-51.2v-128c0-28.278-22.922-51.2-51.2-51.2h-768c-28.277 0-51.2 22.922-51.2 51.2v128c0 28.278 22.923 51.2 51.2 51.2h768zM102.4 448c-56.554 0-102.4-45.847-102.4-102.4v-128c0-56.553 45.846-102.4 102.4-102.4h19.2l-36.848-147.392c-4.039-16.156 8.181-31.808 24.836-31.808h53.79c9.697 0 18.561 5.478 22.897 14.152l76.8 153.6c1.876 3.753 2.737 7.649 2.737 11.448h441.175c0-3.799 0.86-7.695 2.737-11.448l76.8-153.6c4.337-8.673 13.202-14.152 22.897-14.152h53.791c16.655 0 28.877 15.652 24.837 31.808l-36.849 147.392h19.2c56.553 0 102.4 45.847 102.4 102.4v128c0 56.553-45.847 102.4-102.4 102.4h-768z" />
<glyph unicode="&#xe90a;" glyph-name="desk-thin" d="M486.4 38.4c0-28.278-22.922-51.2-51.2-51.2h-332.8c-28.277 0-51.2 22.922-51.2 51.2v409.6c0 28.278 22.923 51.2 51.2 51.2h332.8c28.278 0 51.2-22.922 51.2-51.2v-409.6zM537.6 448c0 56.553-45.847 102.4-102.4 102.4h-332.8c-56.554 0-102.4-45.847-102.4-102.4v-409.6c0-56.553 45.846-102.4 102.4-102.4h332.8c56.553 0 102.4 45.847 102.4 102.4v409.6zM358.4 307.2c0 21.207 17.193 38.4 38.4 38.4s38.4-17.193 38.4-38.4v-128c0-21.207-17.193-38.4-38.4-38.4s-38.4 17.193-38.4 38.4v128zM921.6 908.8c28.278 0 51.2-22.923 51.2-51.2v-153.6c0-28.278-22.922-51.2-51.2-51.2h-819.2c-28.277 0-51.2 22.922-51.2 51.2v153.6c0 28.277 22.923 51.2 51.2 51.2h819.2zM102.4 960c-56.554 0-102.4-45.846-102.4-102.4v-153.6c0-56.553 45.846-102.4 102.4-102.4h819.2c56.553 0 102.4 45.847 102.4 102.4v153.6c0 56.554-45.847 102.4-102.4 102.4h-819.2zM947.2 524.8c0 14.139 11.461 25.6 25.6 25.6s25.6-11.461 25.6-25.6v-563.2c0-14.139-11.461-25.6-25.6-25.6s-25.6 11.461-25.6 25.6v563.2zM576 780.8c21.207 0 38.4-17.192 38.4-38.4s-17.193-38.4-38.4-38.4h-128c-21.207 0-38.4 17.192-38.4 38.4s17.193 38.4 38.4 38.4h128z" />
<glyph unicode="&#xe90b;" glyph-name="bureau-thin" d="M921.6 908.8c28.278 0 51.2-22.923 51.2-51.2v-153.6c0-28.278-22.922-51.2-51.2-51.2h-819.2c-28.277 0-51.2 22.922-51.2 51.2v153.6c0 28.277 22.923 51.2 51.2 51.2h819.2zM102.4 960c-56.554 0-102.4-45.846-102.4-102.4v-153.6c0-56.553 45.846-102.4 102.4-102.4h819.2c56.553 0 102.4 45.847 102.4 102.4v153.6c0 56.554-45.847 102.4-102.4 102.4h-819.2zM576 780.8c21.207 0 38.4-17.192 38.4-38.4s-17.193-38.4-38.4-38.4h-128c-21.207 0-38.4 17.192-38.4 38.4s17.193 38.4 38.4 38.4h128zM576 243.2c21.207 0 38.4-17.193 38.4-38.4s-17.193-38.4-38.4-38.4h-128c-21.207 0-38.4 17.193-38.4 38.4s17.193 38.4 38.4 38.4h128zM921.6 499.2c28.278 0 51.2-22.922 51.2-51.2v-281.6c0-28.278-22.922-51.2-51.2-51.2h-819.2c-28.277 0-51.2 22.922-51.2 51.2v281.6c0 28.278 22.923 51.2 51.2 51.2h819.2zM102.4 550.4c-56.554 0-102.4-45.847-102.4-102.4v-281.6c0-56.553 45.846-102.4 102.4-102.4h42.667l-31.435-94.305c-5.526-16.576 6.813-33.695 24.286-33.695h51.060c9.697 0 18.561 5.478 22.897 14.152l51.2 102.4c1.876 3.753 2.737 7.649 2.737 11.448h492.375c0-3.799 0.86-7.695 2.737-11.448l51.2-102.4c4.337-8.673 13.202-14.152 22.897-14.152h51.062c17.472 0 29.811 17.119 24.287 33.695l-31.437 94.305h42.668c56.553 0 102.4 45.847 102.4 102.4v281.6c0 56.553-45.847 102.4-102.4 102.4h-819.2z" />
<glyph unicode="&#xe90c;" glyph-name="tv-thin" horiz-adv-x="1229" d="M1126.4 908.8c28.278 0 51.2-22.923 51.2-51.2v-691.2c0-28.278-22.922-51.2-51.2-51.2h-1024c-28.277 0-51.2 22.922-51.2 51.2v691.2c0 28.277 22.923 51.2 51.2 51.2h1024zM102.4 960c-56.554 0-102.4-45.846-102.4-102.4v-691.2c0-56.553 45.846-102.4 102.4-102.4h1024c56.553 0 102.4 45.847 102.4 102.4v691.2c0 56.554-45.847 102.4-102.4 102.4h-1024zM934.4 12.8c21.207 0 38.4-17.193 38.4-38.4s-17.193-38.4-38.4-38.4h-640c-21.207 0-38.4 17.193-38.4 38.4s17.193 38.4 38.4 38.4h640zM1126.4 204.8c0-21.208-17.192-38.4-38.4-38.4s-38.4 17.192-38.4 38.4c0 21.208 17.192 38.4 38.4 38.4s38.4-17.192 38.4-38.4zM998.4 204.8c0-21.208-17.192-38.4-38.4-38.4s-38.4 17.192-38.4 38.4c0 21.208 17.192 38.4 38.4 38.4s38.4-17.192 38.4-38.4z" />
<glyph unicode="&#xe90d;" glyph-name="door-thin" d="M918.764 12.8l-229.919-25.546c-27.185 1.231-48.845 23.66-48.845 51.146v793.6c0 28.277 22.922 51.2 51.2 51.2h2.836l229.921 25.547c27.182-1.231 48.842-23.66 48.842-51.147v-793.6c0-28.278-22.922-51.2-51.2-51.2h-2.836zM691.2-64l230.4 25.6c56.553 0 102.4 45.847 102.4 102.4v793.6c0 56.554-45.847 102.4-102.4 102.4l-230.4-25.6c-56.553 0-102.4-45.846-102.4-102.4v-793.6c0-56.553 45.847-102.4 102.4-102.4zM691.2 435.2c0 21.207 17.193 38.4 38.4 38.4s38.4-17.193 38.4-38.4v-128c0-21.207-17.193-38.4-38.4-38.4s-38.4 17.193-38.4 38.4v128zM384 908.8c28.278 0 51.2-22.923 51.2-51.2v-793.6c0-28.278-22.922-51.2-51.2-51.2h-281.6c-28.277 0-51.2 22.922-51.2 51.2v793.6c0 28.277 22.923 51.2 51.2 51.2h281.6zM102.4 960c-56.554 0-102.4-45.846-102.4-102.4v-793.6c0-56.553 45.846-102.4 102.4-102.4h281.6c56.553 0 102.4 45.847 102.4 102.4v793.6c0 56.554-45.847 102.4-102.4 102.4h-281.6zM384 384c0-21.207-17.193-38.4-38.4-38.4s-38.4 17.193-38.4 38.4v128c0 21.207 17.193 38.4 38.4 38.4s38.4-17.193 38.4-38.4v-128z" />
<glyph unicode="&#xe90e;" glyph-name="bed-thin" horiz-adv-x="1331" d="M1228.8 499.2c28.278 0 51.2-22.922 51.2-51.2v-281.6c0-28.278-22.922-51.2-51.2-51.2h-1126.4c-28.277 0-51.2 22.922-51.2 51.2v281.6c0 28.278 22.923 51.2 51.2 51.2h1126.4zM102.4 550.4c-56.554 0-102.4-45.847-102.4-102.4v-281.6c0-56.553 45.846-102.4 102.4-102.4h1126.4c56.553 0 102.4 45.847 102.4 102.4v281.6c0 56.553-45.847 102.4-102.4 102.4h-1126.4zM1216 12.8c21.207 0 38.4-17.193 38.4-38.4s-17.193-38.4-38.4-38.4h-1100.8c-21.208 0-38.4 17.193-38.4 38.4s17.192 38.4 38.4 38.4h1100.8zM271.375 908.8c-11.932 0-22.284-8.246-24.952-19.878l-46.968-204.801c-3.677-16.031 8.504-31.322 24.952-31.322h882.388c16.448 0 28.628 15.291 24.95 31.322l-46.966 204.801c-2.668 11.632-13.020 19.878-24.952 19.878h-788.452zM196.519 900.367c8.003 34.895 39.055 59.633 74.856 59.633h788.452c35.802 0 66.852-24.737 74.857-59.633l46.966-204.8c11.031-48.097-25.51-93.967-74.854-93.967h-882.388c-49.346 0-85.887 45.87-74.857 93.967l46.968 204.8z" />
<glyph unicode="&#xe90f;" glyph-name="lamp-thin" horiz-adv-x="931" d="M325.818 122.182c-25.707 0-47.118-21.157-40.758-46.064 8.201-32.116 24.906-61.75 48.742-85.588 34.916-34.914 82.274-54.53 131.651-54.53s96.735 19.617 131.651 54.53c23.836 23.838 40.541 53.471 48.742 85.588 6.36 24.906-15.050 46.064-40.758 46.064h-279.273zM879.66 231.331c-13.291 87.934-54.344 169.961-117.995 233.609-78.559 78.562-185.111 122.696-296.213 122.696s-217.651-44.134-296.213-122.696c-63.65-63.649-104.704-145.676-117.993-233.609-0.565-3.742 0.438-6.961 3.324-9.984 3.195-3.349 8.584-6.074 15.246-6.074h791.272c6.663 0 12.053 2.725 15.246 6.074 2.886 3.023 3.891 6.242 3.326 9.984zM925.682 238.287c5.762-38.128-26.033-69.56-64.593-69.56h-791.272c-38.56 0-70.355 31.432-64.593 69.56 14.766 97.704 60.38 188.842 131.103 259.565 87.29 87.291 205.68 136.329 329.126 136.329s241.836-49.038 329.128-136.329c70.723-70.723 116.336-161.862 131.102-259.565zM370.991 739.303c5.446 20.357 23.889 34.515 44.963 34.515h93.528c20.035 0 37.823-12.82 44.158-31.826l7.757-23.272c10.047-30.141-12.386-61.265-44.158-61.265h-107.511c-30.599 0-52.873 29.019-44.965 58.575l6.228 23.273zM442.182 936.727c0 12.853 10.419 23.273 23.273 23.273s23.273-10.42 23.273-23.273v-93.091c0-12.853-10.419-23.273-23.273-23.273s-23.273 10.42-23.273 23.273v93.091z" />
<glyph unicode="&#xe910;" glyph-name="allergies-solid" horiz-adv-x="896" d="M832 736c-35.2 0-64-28.8-64-64v-144c0-8.8-7.2-16-16-16h-32c-8.8 0-16 7.2-16 16v304c0 35.2-28.8 64-64 64s-64-28.8-64-64v-304c0-8.8-7.2-16-16-16h-32c-8.8 0-16 7.2-16 16v368c0 35.2-28.8 64-64 64s-64-28.8-64-64v-368c0-8.8-7.2-16-16-16h-32c-8.8 0-16 7.2-16 16v304c0 35.2-28.8 64-64 64s-64-28.8-64-64v-482l-47.2 65c-26 35.8-76 43.6-111.8 17.6s-43.6-76-17.6-111.8l251.2-345.4c18-24.8 47-39.6 77.6-39.6h395.2c44.6 0 83.2 30.6 93.4 74l53 225.4c6.4 27.4 9.8 56.6 10.2 84.6v352.2c0 35.2-28.8 64-64 64zM352 128c-17.6 0-32 14.4-32 32s14.4 32 32 32 32-14.4 32-32-14.4-32-32-32zM352 320c-17.6 0-32 14.4-32 32s14.4 32 32 32 32-14.4 32-32-14.4-32-32-32zM480 64c-17.6 0-32 14.4-32 32s14.4 32 32 32 32-14.4 32-32-14.4-32-32-32zM480 256c-17.6 0-32 14.4-32 32s14.4 32 32 32 32-14.4 32-32-14.4-32-32-32zM608 192c-17.6 0-32 14.4-32 32s14.4 32 32 32 32-14.4 32-32-14.4-32-32-32zM672 64c-17.6 0-32 14.4-32 32s14.4 32 32 32 32-14.4 32-32-14.4-32-32-32zM736 320c-17.6 0-32 14.4-32 32s14.4 32 32 32 32-14.4 32-32-14.4-32-32-32z" />
<glyph unicode="&#xe911;" glyph-name="american-sign-language-interpreting-solid" horiz-adv-x="1280" d="M581.094 581.922c-40.59 20.298-88.294 22.398-129.478 7.78 85.212 0 142.416-40.95 171.156-101.152 17.152-35.798-10.296-76.142-47.234-76.142 36.858 0 64.422-40.272 47.234-76.142-29.45-61.692-92.246-101.708-160.596-101.708-1.114 0-188.942 17.23-188.942 17.23l-132.812-66.694c-18.768-9.386-39.63-0.758-47.79 15.562l-88.912 177.85c-8.334 17.23-2.222 37.794 13.892 47.242l116.144 66.138 82.244 148.392c12.78 114.49 69.462 219.534 159.486 293.452 22.782 18.896 56.682 15.562 75.020-7.226 18.892-22.788 15.56-56.134-7.224-75.032-25.006-21.118-47.236-45.018-65.018-71.14 43.344 29.458 93.358 49.464 148.372 56.134 29.45 3.89 56.126-16.672 59.46-46.13 3.89-29.456-16.672-56.134-46.124-59.468-32.232-3.89-62.24-15.006-88.356-30.568 52.228 11.426 117.424 6.276 176.158-22.23 26.672-13.338 37.786-45.018 24.448-71.696-12.778-26.12-45.008-37.234-71.128-24.452zM526.636 442.978c-12.224 25.010-36.676 40.572-64.462 40.572-0.062 0-0.136 0-0.21 0-39.168 0-70.92-31.752-70.92-70.92 0-0.077 0-0.155 0-0.232v0.012c0-42.856 35.616-71.14 71.13-71.14 27.786 0 52.238 15.562 64.462 40.572 8.892 18.898 27.228 30.012 46.678 30.568-19.45 0.554-37.786 11.67-46.678 30.568zM1276.278 517.452c8.336-17.23 2.222-37.794-13.892-47.242l-116.142-66.138-82.244-148.392c-12.78-114.49-69.462-219.534-159.486-293.452-21.864-18.224-55.598-16.288-75.020 7.226-18.892 22.788-15.56 56.134 7.226 75.032 25.006 21.118 47.234 45.018 65.016 71.14-43.344-29.458-93.358-49.464-148.372-56.134-20.042-5.012-55.104 11.286-59.46 46.13-3.89 29.456 16.672 56.134 46.124 59.468 32.232 3.892 62.24 15.006 88.356 30.568-52.228-11.426-117.424-6.276-176.158 22.23-26.672 13.338-37.786 45.018-24.448 71.696 12.778 26.122 45.010 37.238 71.13 24.454 40.59-20.298 88.294-22.398 129.478-7.78-85.212 0-142.416 40.95-171.156 101.152-17.152 35.798 10.296 76.142 47.234 76.142-36.858 0-64.422 40.272-47.234 76.142 28.066 58.792 88.078 101.774 163.932 101.708l185.606-17.23 132.812 66.694c18.816 9.408 39.656 0.708 47.788-15.562l88.91-177.852zM817.824 554.688c-27.786 0-52.238-15.562-64.462-40.572-8.892-18.898-27.228-30.012-46.678-30.568 19.45-0.556 37.786-11.672 46.678-30.568 12.224-25.010 36.676-40.572 64.462-40.572 0.062 0 0.136 0 0.21 0 39.168 0 70.92 31.752 70.92 70.92 0 0.077 0 0.155 0 0.232v-0.012c0 42.858-35.616 71.14-71.13 71.14z" />
<glyph unicode="&#xe912;" glyph-name="arrow-right-solid" horiz-adv-x="896" d="M381 826.2l44.4 44.4c18.8 18.8 49.2 18.8 67.8 0l388.8-388.6c18.8-18.8 18.8-49.2 0-67.8l-388.8-388.8c-18.8-18.8-49.2-18.8-67.8 0l-44.4 44.4c-19 19-18.6 50 0.8 68.6l241 229.6h-574.8c-26.6 0-48 21.4-48 48v64c0 26.6 21.4 48 48 48h574.8l-241 229.6c-19.6 18.6-20 49.6-0.8 68.6z" />
<glyph unicode="&#xe913;" glyph-name="assistive-listening-systems-solid" d="M432 440c0-30.928-25.072-56-56-56s-56 25.072-56 56c0 88.224 71.776 160 160 160s160-71.776 160-160c0-30.928-25.072-56-56-56s-56 25.072-56 56c0 26.468-21.534 48-48 48s-48-21.532-48-48zM480 792c-194.094 0-352-157.906-352-352 0-30.928 25.072-56 56-56s56 25.072 56 56c0 132.336 107.664 240 240 240s240-107.664 240-240c0-150.328-142.018-140.622-143.994-287.244l-0.006-0.756c0-57.346-46.654-104-104-104-30.928 0-56-25.072-56-56s25.072-56 56-56c118.95 0 215.752 96.656 216 215.548 1.19 68.856 144 96.48 144 288.452 0 194.094-157.906 352-352 352zM320 320c-35.346 0-64-28.654-64-64s28.654-64 64-64 64 28.654 64 64-28.654 64-64 64zM64 64c-35.346 0-64-28.654-64-64s28.654-64 64-64 64 28.654 64 64-28.654 64-64 64zM1024 439.986c0 3.036-0.024 6.050-0.090 9.062-3.758 229.902-151.596 434.012-367.922 507.93-29.266 9.996-61.098-5.618-71.1-34.884-10-29.266 5.62-61.098 34.884-71.1 171.812-58.708 289.22-221.026 292.154-403.906l0.006-0.376c0.052-2.236 0.066-4.472 0.066-6.726 0-30.928 25.072-56 56-56s56.002 25.072 56.002 56zM305.942 81.942l-160 160-67.882-67.882 160-160 67.882 67.882z" />
<glyph unicode="&#xe914;" glyph-name="bed-solid" horiz-adv-x="1280" d="M352 448c88.22 0 160 71.78 160 160s-71.78 160-160 160-160-71.78-160-160 71.78-160 160-160zM1056 704h-448c-17.68 0-32-14.32-32-32v-288h-448v416c0 17.68-14.32 32-32 32h-64c-17.68 0-32-14.32-32-32v-704c0-17.68 14.32-32 32-32h64c17.68 0 32 14.32 32 32v96h1024v-96c0-17.68 14.32-32 32-32h64c17.68 0 32 14.32 32 32v384c0 123.72-100.28 224-224 224z" />
<glyph unicode="&#xe915;" glyph-name="bold-solid" horiz-adv-x="768" d="M666.98 484c29.349 35.636 48.888 80.359 53.914 129.381l0.086 1.039c14.76 152.6-104.98 281.58-254.14 281.58h-398.84c-17.673 0-32-14.327-32-32v0-96c0-17.673 14.327-32 32-32v0h63.74v-576h-63.74c-17.673 0-32-14.327-32-32v0-96c0-17.673 14.327-32 32-32v0h418.64c141.6 0 268.28 103.5 282 244.8 9.48 96.9-32.78 184.12-101.66 239.2zM291.32 736h175.52c53.019 0 96-42.981 96-96s-42.981-96-96-96v0h-175.52zM466.84 160h-175.52v224h175.52c61.856 0 112-50.144 112-112s-50.144-112-112-112v0z" />
<glyph unicode="&#xe916;" glyph-name="check-circle-solid" d="M1008 448c0-273.934-222.066-496-496-496s-496 222.066-496 496 222.066 496 496 496 496-222.066 496-496zM454.628 185.372l368 368c12.496 12.496 12.496 32.758 0 45.254l-45.254 45.254c-12.496 12.498-32.758 12.498-45.256 0l-300.118-300.116-140.118 140.118c-12.496 12.496-32.758 12.496-45.256 0l-45.254-45.254c-12.496-12.496-12.496-32.758 0-45.254l208-208c12.498-12.498 32.758-12.498 45.256-0.002z" />
<glyph unicode="&#xe917;" glyph-name="exclamation-circle-solid" d="M1008 448c0-273.994-222.086-496-496-496s-496 222.006-496 496c0 273.834 222.086 496 496 496s496-222.166 496-496zM512 348c-50.81 0-92-41.19-92-92s41.19-92 92-92 92 41.19 92 92-41.19 92-92 92zM424.654 678.692l14.836-272c0.694-12.728 11.218-22.692 23.964-22.692h97.092c12.746 0 23.27 9.964 23.964 22.692l14.836 272c0.75 13.748-10.196 25.308-23.964 25.308h-126.766c-13.768 0-24.712-11.56-23.962-25.308z" />
<glyph unicode="&#xe918;" glyph-name="hamsa-solid" d="M1018.68 345.5c-10.12 23.38-33.18 38.5-58.68 38.5h-128v416c0 44-36 80-80 80s-80-36-80-80v-268c0-11.040-8.96-20-20-20h-40c-11.040 0-20 8.96-20 20v348c0 44-36 80-80 80s-80-36-80-80v-348c0-11.040-8.96-20-20-20h-40c-11.040 0-20 8.96-20 20v268c0 44-36 80-80 80s-80-36-80-80v-416h-128c-25.5 0-48.56-15.12-58.68-38.5-3.362-7.52-5.32-16.298-5.32-25.532 0-16.882 6.544-32.236 17.233-43.664l-0.033 0.036 205.38-220.060c71.36-76.44 176.8-120.28 289.42-120.28s218.060 43.84 289.44 120.28l205.36 220.060c10.656 11.392 17.2 26.745 17.2 43.628 0 9.235-1.958 18.012-5.481 25.939l0.162-0.407zM512 128c-106.040 0-192 128-192 128s85.96 128 192 128 192-128 192-128-85.96-128-192-128zM512 320c-35.34 0-64-28.66-64-64s28.66-64 64-64 64 28.66 64 64-28.66 64-64 64z" />
<glyph unicode="&#xe919;" glyph-name="home-solid" horiz-adv-x="1152" d="M560.74 663.48l-368.74-303.7v-327.78c0-17.673 14.327-32 32-32v0l224.12 0.58c17.604 0.091 31.84 14.383 31.84 32 0 0 0 0 0 0v0 191.42c0 17.673 14.327 32 32 32v0h128c17.673 0 32-14.327 32-32v0-191.28c0-0.030 0-0.065 0-0.1 0-17.673 14.327-32 32-32 0 0 0 0 0 0v0l224.040-0.62c17.673 0 32 14.327 32 32v0 328l-368.66 303.48c-4.145 3.363-9.485 5.399-15.3 5.399s-11.155-2.036-15.345-5.434l0.045 0.036zM1143.2 457.060l-167.2 137.82v277.020c0 13.255-10.745 24-24 24v0h-112c-13.255 0-24-10.745-24-24v0-145.22l-179.060 147.32c-16.448 13.613-37.759 21.872-61 21.872s-44.552-8.259-61.161-22.001l0.161 0.129-506.26-416.94c-5.337-4.434-8.71-11.073-8.71-18.499 0-5.833 2.081-11.181 5.542-15.34l-0.032 0.039 51-62c4.434-5.364 11.089-8.755 18.537-8.755 5.825 0 11.166 2.075 15.323 5.527l-0.039-0.032 470.44 387.48c4.145 3.363 9.485 5.399 15.3 5.399s11.155-2.036 15.345-5.434l-0.045 0.036 470.46-387.48c4.12-3.429 9.468-5.51 15.301-5.51 7.426 0 14.065 3.373 18.467 8.671l0.032 0.039 51 62c3.398 4.11 5.459 9.434 5.459 15.239 0 7.494-3.435 14.186-8.816 18.587l-0.043 0.034z" />
<glyph unicode="&#xe91a;" glyph-name="lightbulb-solid" horiz-adv-x="704" d="M192.12 51.3c0.020-12.58 3.74-24.9 10.72-35.38l34.18-51.38c11.632-17.317 31.143-28.56 53.28-28.56h123.42c22.137 0 41.648 11.243 53.135 28.331l0.145 0.229 34.18 51.38c6.703 9.945 10.705 22.194 10.72 35.376v0.004l0.080 76.7h-319.96l0.1-76.7zM0 608c0-88.74 32.9-169.7 87.12-231.56 33.040-37.7 84.72-116.46 104.42-182.9 0.080-0.52 0.14-1.040 0.22-1.56h320.48c0.080 0.52 0.14 1.020 0.22 1.56 19.7 66.44 71.38 145.2 104.42 182.9 54.22 61.86 87.12 142.82 87.12 231.56 0 194.78-158.18 352.6-353.1 352-204.020-0.62-350.9-165.94-350.9-352zM352 768c-88.22 0-160-71.78-160-160 0-17.68-14.32-32-32-32s-32 14.32-32 32c0 123.52 100.48 224 224 224 17.68 0 32-14.32 32-32s-14.32-32-32-32z" />
<glyph unicode="&#xe91b;" glyph-name="paper-plane-solid" d="M952 953.6l-927-534.8c-36.2-20.8-31.6-71.2 4.4-86.4l212.6-89.2 574.6 506.4c11 9.8 26.6-5.2 17.2-16.6l-481.8-587v-161c0-47.2 57-65.8 85-31.6l127 154.6 249.2-104.4c28.4-12 60.8 5.8 66 36.4l144 864c6.8 40.4-36.6 69.6-71.2 49.6z" />
<glyph unicode="&#xe91c;" glyph-name="play-solid" horiz-adv-x="896" d="M848.8 530.6l-704 416.2c-57.2 33.8-144.8 1-144.8-82.6v-832.2c0-75 81.4-120.2 144.8-82.6l704 416c62.8 37 63 128.2 0 165.2z" />
<glyph unicode="&#xe91d;" glyph-name="rainbow-solid" horiz-adv-x="1152" d="M536.6 894.6c-305.8-20.4-536.6-288.4-536.6-595v-267.6c0-17.6 14.4-32 32-32h64c17.6 0 32 14.4 32 32v288c0 266.4 233.8 479.4 507 444.2 225.8-29 389-232.2 389-459.8v-272.4c0-17.6 14.4-32 32-32h64c17.6 0 32 14.4 32 32v288c0 330.6-280 597.2-615.4 574.6zM525.4 700.8c-193.4-24.8-333.4-199-333.4-394.2v-274.6c0-17.6 14.4-32 32-32h64c17.6 0 32 14.4 32 32v288c0 149.6 129 269.6 281.6 254.8 133-13 230.4-132.4 230.4-266.2v-276.6c0-17.6 14.4-32 32-32h64c17.6 0 32 14.4 32 32v288c0 228.4-200.4 410.8-434.6 380.8zM537.8 508.2c-91.2-17.8-153.8-103-153.8-195.8v-280.4c0-17.6 14.4-32 32-32h64c17.6 0 32 14.4 32 32v288c0 35.2 28.6 64 64 64s64-28.8 64-64v-288c0-17.6 14.4-32 32-32h64c17.6 0 32 14.4 32 32v288c0 118.4-107.6 212-230.2 188.2z" />
<glyph unicode="&#xe91e;" glyph-name="star-of-life-solid" horiz-adv-x="960" d="M943.98 291.14l-271.86 156.86 271.86 156.86c15.32 8.84 20.56 28.4 11.72 43.72l-64.040 110.86c-8.84 15.3-28.42 20.56-43.74 11.72l-271.86-156.86v313.7c0 17.68-14.34 32-32.020 32h-128.080c-17.68 0-32.020-14.32-32.020-32v-313.72l-271.86 156.86c-15.32 8.84-34.9 3.58-43.74-11.72l-64.040-110.84c-8.84-15.3-3.6-34.88 11.72-43.72l271.86-156.86-271.86-156.86c-15.32-8.84-20.56-28.42-11.72-43.72l64.040-110.86c8.84-15.3 28.42-20.54 43.74-11.72l271.86 156.86v-313.7c0-17.68 14.34-32 32.020-32h128.080c17.68 0 32.020 14.32 32.020 32v313.72l271.86-156.86c15.32-8.84 34.9-3.6 43.74 11.72l64.040 110.86c8.84 15.3 3.6 34.86-11.72 43.7z" />
<glyph unicode="&#xe91f;" glyph-name="instagram-brands" horiz-adv-x="896" d="M448.2 678c-127.2 0-229.8-102.6-229.8-229.8s102.6-229.8 229.8-229.8 229.8 102.6 229.8 229.8-102.6 229.8-229.8 229.8zM448.2 298.8c-82.2 0-149.4 67-149.4 149.4s67 149.4 149.4 149.4 149.4-67 149.4-149.4-67.2-149.4-149.4-149.4zM741 687.4c0-29.8-24-53.6-53.6-53.6-29.8 0-53.6 24-53.6 53.6s24 53.6 53.6 53.6 53.6-24 53.6-53.6zM893.2 633c-3.4 71.8-19.8 135.4-72.4 187.8-52.4 52.4-116 68.8-187.8 72.4-74 4.2-295.8 4.2-369.8 0-71.6-3.4-135.2-19.8-187.8-72.2s-68.8-116-72.4-187.8c-4.2-74-4.2-295.8 0-369.8 3.4-71.8 19.8-135.4 72.4-187.8s116-68.8 187.8-72.4c74-4.2 295.8-4.2 369.8 0 71.8 3.4 135.4 19.8 187.8 72.4 52.4 52.4 68.8 116 72.4 187.8 4.2 74 4.2 295.6 0 369.6zM797.6 184c-15.6-39.2-45.8-69.4-85.2-85.2-59-23.4-199-18-264.2-18s-205.4-5.2-264.2 18c-39.2 15.6-69.4 45.8-85.2 85.2-23.4 59-18 199-18 264.2s-5.2 205.4 18 264.2c15.6 39.2 45.8 69.4 85.2 85.2 59 23.4 199 18 264.2 18s205.4 5.2 264.2-18c39.2-15.6 69.4-45.8 85.2-85.2 23.4-59 18-199 18-264.2s5.4-205.4-18-264.2z" />
<glyph unicode="&#xe920;" glyph-name="menu" d="M934.4 204.19c25.92 0 46.933-21.833 46.933-48.759 0-26.931-21.013-48.764-46.933-48.764h-844.8c-25.92 0-46.933 21.833-46.933 48.764 0 26.927 21.013 48.759 46.933 48.759h844.8zM934.4 496.764c25.92 0 46.933-21.833 46.933-48.764s-21.013-48.764-46.933-48.764h-844.8c-25.92 0-46.933 21.833-46.933 48.764s21.013 48.764 46.933 48.764h844.8zM934.4 789.333c25.92 0 46.933-21.831 46.933-48.762s-21.013-48.762-46.933-48.762h-844.8c-25.92 0-46.933 21.831-46.933 48.762s21.013 48.762 46.933 48.762h844.8z" />
<glyph unicode="&#xe921;" glyph-name="close" d="M580.945 447.996l258.091 258.090c19.063 19.066 19.063 49.882 0 68.948-19.068 19.066-49.882 19.066-68.949 0l-258.086-258.093-258.088 258.093c-19.065 19.066-49.882 19.066-68.947 0s-19.065-49.882 0-68.948l258.089-258.090-258.089-258.095c-19.065-19.063-19.065-49.882 0-68.945 9.508-9.51 21.991-14.289 34.473-14.289s24.965 4.779 34.473 14.289l258.088 258.091 258.086-258.091c9.51-9.51 21.99-14.289 34.475-14.289s24.964 4.779 34.475 14.289c19.063 19.063 19.063 49.882 0 68.945l-258.091 258.095z" />
<glyph unicode="&#xe922;" glyph-name="outline" d="M448 874.639c96.183-0.006 188.429-38.217 256.439-106.228s106.223-160.253 106.227-256.436c0-71.727-21.269-141.85-61.12-201.489-5.278-7.898-10.854-15.569-16.704-22.993l193.323-193.323c16.661-16.661 16.661-43.678 0-60.339s-43.678-16.661-60.339 0l-193.318 193.318c-25.997-20.489-54.81-37.431-85.722-50.236-66.27-27.452-139.187-34.633-209.539-20.638s-134.972 48.533-185.691 99.255c-50.72 50.718-85.261 115.341-99.254 185.69s-6.812 143.27 20.638 209.539c27.449 66.269 73.933 122.909 133.574 162.76s129.758 61.12 201.487 61.12zM643.115 707.087c-51.75 51.748-121.933 80.85-195.115 80.855-54.575 0-107.927-16.212-153.305-46.532s-80.747-73.417-101.632-123.839c-20.885-50.422-26.35-105.904-15.703-159.433 10.647-53.525 36.928-102.694 75.52-141.286 38.591-38.588 87.759-64.87 141.286-75.52 53.526-10.645 109.010-5.18 159.433 15.706 50.419 20.885 93.517 56.252 123.836 101.632 30.323 45.376 46.507 98.731 46.507 153.306-0.004 73.181-29.082 143.365-80.828 195.113z" />
<glyph unicode="&#xe923;" glyph-name="user" d="M298.667 277.333h426.667c117.82 0 213.333-95.514 213.333-213.333 0-23.565-19.102-42.667-42.667-42.667-21.879 0-39.915 16.469-42.381 37.692l-0.503 12.497c-3.75 64.704-55.556 116.51-120.26 120.26l-7.522 0.218h-426.667c-70.692 0-128-57.306-128-128 0-23.565-19.103-42.667-42.667-42.667s-42.667 19.102-42.667 42.667c0 114.722 90.552 208.29 204.079 213.137l9.254 0.196zM512 874.667c141.385 0 256-114.615 256-256s-114.615-256-256-256c-141.385 0-256 114.615-256 256s114.615 256 256 256zM512 789.333c-94.257 0-170.667-76.41-170.667-170.667 0-94.255 76.41-170.667 170.667-170.667 94.255 0 170.667 76.412 170.667 170.667 0 94.257-76.412 170.667-170.667 170.667z" />
<glyph unicode="&#xe924;" glyph-name="shopping-cart" d="M362.667 149.333c35.346 0 64-28.655 64-64s-28.654-64-64-64c-35.346 0-64 28.655-64 64s28.654 64 64 64zM746.667 149.333c35.345 0 64-28.655 64-64s-28.655-64-64-64c-35.345 0-64 28.655-64 64s28.655 64 64 64zM128 874.667h85.333c19.439 0 36.195-13.092 41.176-31.477l0.995-4.702 20.69-134.488h619.806c25.591 0 45.009-22.216 42.458-46.948l-0.806-4.974-70.485-317.178c-12.446-56.017-60.514-96.576-117.175-99.998l-7.774-0.235h-370.341c-60.65 0-112.592 42.479-125.149 101.124l-1.362 7.411-68.635 446.131h-48.729c-23.564 0-42.667 19.103-42.667 42.667 0 21.881 16.471 39.915 37.691 42.38l4.976 0.287zM842.812 618.667h-553.489l40.383-262.49c2.956-19.213 18.443-33.779 37.372-35.908l4.799-0.269h370.341c18.33 0 34.406 11.669 40.299 28.651l1.348 4.762 58.948 265.254z" />
</font>
</defs>
</svg>
